Skip to main content

Zero Live at Fox Theatre on 1993-04-22

by Zero



Set 1:
d1t01 - Tuning
d1t02 - Cole's Law ->
d1t03 - Tangled Hangers
d1t04 - Highway 61 Revisited
d1t05 - Home on the Range
d1t06 - Spoken For
d1t07 - Mercury Blues

Set 2:
d1t08 - Tuning
d2t01 - End of the World Blues
d2t02 - Chance in a Million
d2t03 - Berm
d2t04 - Catalina
d2t05 - Drums ->
d2t06 - Gregg's Eggs ->
d2t07 - Little Wing


Collection Zero
Band/Artist Zero
Date April 22, 1993
Venue Fox Theatre
Location Boulder, CO

Source (Stage/Center 90°) AMS ST250 + (Stage/Split 10') AKG C61 Omni + (20' From Stage) Neumann KM254 + (Direct Feeds) Sax, Vocals & Stereo Drum Mix -> Mackie CR1604 -> Yamaha AD2X -> Dat Master (Teac DA-20/48k)
Lineage Dat (Tascam DA-20) -> Tascam SS-R05 -> Samplitude Professional v11.2.1 -> FLAC
Taped by Unknown
Transferred by Charlie Miller


Reviews

Reviewer: permagrin - - January 15, 2013
Subject: Sounds Great!
And another thank you to Mr. Miller. Great recording. Nice show.
Reviewer: CharlieMiller - - January 4, 2013
Subject: setlist corrections
Zero - April 22, 1993
Fox Theatre - Boulder, CO

Recording Info:
(Stage/Center 90°) AMS ST250 +
(Stage/Split 10') AKG C61 Omni +
(20' From Stage) Neumann KM254 +
(Direct Feeds) Sax, Vocals & Stereo Drum Mix ->
Mackie CR1604 -> Yamaha AD2X -> Dat Master (Teac DA-20/48k)

Transfer Info:
Dat (Tascam DA-20) -> Tascam SS-R05 -> Samplitude Professional v11.2.1 -> FLAC
(2 Discs Audio / 1 DVD FLAC)

All Transfers and Mastering By Charlie Miller
charlie@kimock.com
January 1, 2013

Notes:
-- Disc change is seamless

Set 1:
d1t01 - Tuning
d1t02 - Cole's Law ->
d1t03 - Tangled Hangers
d1t04 - Highway 61 Revisited
d1t05 - Home On The Range
d1t06 - Spoken For
d1t07 - Mercury Blues

Set 2:
d1t08 - Tuning
d2t01 - End Of The World Blues
d2t02 - Chance In A Million
d2t03 - Berm
d2t04 - Catalina
d2t05 - Drums ->
d2t06 - Gregg's Eggs ->
d2t07 - Little Wing


SHNTOOL OUTPUT:
length expanded size cdr WAVE problems fmt ratio filename
1:35.41 16854476 B --- -- ---xx flac 0.3552 zero1993-04-22d1t01.flac
12:49.15 135686924 B --- -- ---xx flac 0.5378 zero1993-04-22d1t02.flac
15:08.15 160206524 B --- -- ---xx flac 0.5341 zero1993-04-22d1t03.flac
9:34.16 101291276 B --- -- ---xx flac 0.5590 zero1993-04-22d1t04.flac
16:13.28 171703100 B --- -- ---xx flac 0.5096 zero1993-04-22d1t05.flac
10:34.30 111908204 B --- -- ---xx flac 0.5320 zero1993-04-22d1t06.flac
7:42.29 81565052 B --- -- ---xx flac 0.5842 zero1993-04-22d1t07.flac
2:30.67 26617628 B --- -- ---xx flac 0.3668 zero1993-04-22d1t08.flac
13:32.07 143253308 B --- -- ---xx flac 0.5099 zero1993-04-22d2t01.flac
9:17.66 98410076 B --- -- ---xx flac 0.5506 zero1993-04-22d2t02.flac
15:00.25 158818844 B --- -- ---xx flac 0.5122 zero1993-04-22d2t03.flac
14:47.23 156520940 B --- -- ---xx flac 0.5513 zero1993-04-22d2t04.flac
2:35.52 27464348 B --- -- ---xx flac 0.5444 zero1993-04-22d2t05.flac
14:38.64 155029772 B --- -- ---xx flac 0.5755 zero1993-04-22d2t06.flac
8:42.62 92226668 B --- -- ---xx flac 0.5283 zero1993-04-22d2t07.flac
154:43.15 1637557140 B 0.5333 (15 files)
Download Options
832.9M
FLAC
97.8M
OGG VORBIS
2.4K
TEXT
34.6K
TORRENT
194.2M
VBR M3U
194.2M
VBR MP3
-
VBR ZIP
In Collection
Zero
In Collection
Live Music Archive
Uploaded by
KaiserSose
on 1/4/2013
Views
603
Favorites
4
Reviews
2
PEOPLE ALSO FOUND
Zero
by Zero
97
0
0
Source: AMS 250 Stereo Mics > Sony D3 (Clone)
Zero
by Zero
682
0
0
Source: DSBD > Sony TCD-D10 Pro II
Zero
by Zero
209
0
2
( 2 reviews )
Source: FOB Schoeps mk41 > cmc6 > Sonosax SX-M2 > DA-P1 > D8
Zero
99
0
0
Source: Steve Keyser's VHS
Zero
by Zero
242
0
1
( 1 reviews )
Source: Neumann KM?54's (110 degree spacing, fr/ctr stage) & AKG C61's (8' Space) w/vocals & Sax Direct > Mackie Mixer > Yamaha > Tascam DA-30 > DAT @ 16/48
Zero
by Zero
98
0
0
Source: Matrix 60% sbd/40% aud (-3 dbs)
Zero
by Zero
151
0
0
Source: SBD + (Stage) AKG C61 -> Mackie CR-1604 -> Dat (48k)
Zero
by Zero
457
0
0
Source: DSBD DAT
Zero
by Zero
137
0
0
Source: (FOB) AKG 451EB/CK1 (15 rows from stage) > Whirlwind Phantoms > Teac DA-P20 (48k)
Zero
by Zero
192
0
0
Source: On-Stage Mics > DAT